Jump to content
Welcome, Guest
Existing user? Sign In

Sign In



Sign Up
Sign in to follow this  
Guest

[Film] [Aventuri] Oz: The Great and Powerful (2013)

Recommended Posts

Guest

oz-the-great-and-powerful-350465l.jpg

"Grozavul şi puternicul Oz" (Oz: The Great and Powerful), noua producţie cinematografică marca Disney, ilustrează originile iubitului personaj, creat de L. Frank Baum, acum mai bine de 100 de ani.

Povestea începe odată cu alungarea lui Oscar Diggs (James Franco), un magician de circ cu principii etice discutabile, din prăfuitul Kansas. Acesta ajunge astfel pe Tărâmul lui Oz, un loc plin de viaţă şi crede că a dat norocul peste el: aici ar putea deveni faimos şi s-ar putea îmbogăţi. Însă, în scurt timp, cunoaşte trei vrăjitoare de-ale locului, Theodora (Mila Kunis), Evanora (Rachel Weisz) şi Glinda (Michelle Williams), care nu sunt sigure că acesta este marele vrăjitor pe care îl aşteptau cu toţii.

Fără să vrea, magicianul devine implicat în problemele noii lui ţări şi ale locuitorilor acesteia şi trebuie să îşi folosescă talentul şi farmecele pentru a deosebi binele de rău, înainte să fie prea târziu. Astfel, Oscar se transformă în "Grozavul şi Puternicul Magician din Oz" şi în acelaşi timp, devine un om mai bun.

General

Complete name : Oz the Great and Powerful 2013 HDTS x264 AAC-OFFLiNE.mp4

Format : MPEG-4

Format profile : Base Media

Codec ID : isom

File size : 1.44 GiB

Duration : 2h 4mn

Overall bit rate mode : Variable

Overall bit rate : 1 657 Kbps

Encoded date : UTC 2013-03-15 21:27:19

Tagged date : UTC 2013-03-15 21:27:19

Video

ID : 1

Format : AVC

Format/Info : Advanced Video Codec

Format profile : [email protected]

Format settings, CABAC : Yes

Format settings, ReFrames : 3 frames

Codec ID : avc1

Codec ID/Info : Advanced Video Coding

Duration : 2h 4mn

Bit rate mode : Variable

Bit rate : 1 530 Kbps

Maximum bit rate : 40.0 Mbps

Width : 720 pixels

Height : 304 pixels

Display aspect ratio : 2.35:1

Frame rate mode : Constant

Frame rate : 25.000 fps

Color space : YUV

Chroma subsampling : 4:2:0

Bit depth : 8 bits

Scan type : Progressive

Bits/(Pixel*Frame) : 0.280

Stream size : 1.33 GiB (92%)

Writing library : x264 core 130 r2273 b3065e6

Audio

ID : 2

Format : AAC

Format/Info : Advanced Audio Codec

Format profile : LC

Codec ID : 40

Duration : 2h 4mn

Bit rate mode : Variable

Bit rate : 123 Kbps

Maximum bit rate : 152 Kbps

Channel(s) : 2 channels

Channel positions : Front: L R

Sampling rate : 48.0 KHz

Compression mode : Lossy

Stream size : 110 MiB (7%)

Language : English

Encoded date : UTC 2013-03-15 03:55:08

Tagged date : UTC 2013-03-15 21:28:05

dDWr42O.png

s0dL4Ox.png

WPP4YEk.png

zGCk7px.png

IJ7ElsM.png

rPYLVhe.png

nrM2bSf.png

p286fo1.png

D6a2mjd.png

0sd4RLM.png

Share this post


Link to post
Share on other sites
Guest
This topic is now closed to further replies.
Sign in to follow this  

About Us

Fioriginal.Ro Gaming community

© FiOriginal.ro

Important Links

Rules

Important Links

Making a comeback
×
×
  • Create New...